IMAX 映前秀

4K测试片 天影4K 3968浏览

General # 1
Unique ID : 195157117066491931367296159606153158625(0x92D1E4C07867BA27A2B8E3962CD01FE1)
Complete name : IMAX PreShow.mkv
Format : Matroska
Format version : Version 4 / Version 2
File size : 407 MiB
Duration : 45 s 1 ms
Overall bit rate mode : Variable
Overall bit rate : 75.9 Mbps
Movie name : Test Fox raitings
Encoded date : UTC 2014-12-30 12:07:48
Writing application : mkvmerge v7.4.0 (‘Circles’) 64bit built on Dec 12 2014 12:19:56
Writing library : libebml v1.3.0 + libmatroska v1.4.1

Video # 1
ID : 1
Format : AVC
Format/Info : Advanced Video Codec
Format profile : High 10@L5.1
Format settings, CABAC : Yes
Format settings, ReFrames : 12 frames
Codec ID : V_MPEG4/ISO/AVC
Duration : 45 s 0 ms
Bit rate : 65.1 Mbps
Width : 3996 pixels
Height : 2160 pixels
Display aspect ratio : 1.85:1
Frame rate mode : Constant
Frame rate : 24.000 FPS
Color space : YUV
Chroma subsampling : 4:2:0
Bit depth : 10 bits
Scan type : Progressive
Bits/(Pixel*Frame) : 0.314
Stream size : 349 MiB (86%)
Title : DCPrip, h264, 10-bit, 420 css, pc range
Writing library : x264 core 142 r2431+42 c69a006 tMod [10-bit@ALL X86_64]
Encoding settings : cabac=1 / ref=12 / deblock=1:-3:-2 / analyse=0x3:0x133 / me=tesa / subme=11 / psy=1 /  fade_compensate=0.00 /  psy_rd=0.70:0.10 / mixed_ref=1 / me_range=48 / chroma_me=1 / trellis=2 / 8x8dct=1 / cqm=0 / deadzone=21,11 / fast_pskip=0 / chroma
Default : Yes
Forced : No
Color range : Full
Color primaries : BT.709
Transfer characteristics : BT.709
Matrix coefficients : BT.709

Audio # 1
ID : 2
Format : FLAC
Format/Info : Free Lossless Audio Codec
Codec ID : A_FLAC
Duration : 45 s 1 ms
Bit rate mode : Variable
Bit rate : 3658 Kbps
Channel(s) : 6 channels
Sampling rate : 48.0 KHz
Frame rate : 11.733 FPS (4091 spf)
Bit depth : 24 bits
Stream size : 19.6 MiB (5%)
Title : FLAC
Writing Iibrary : IibFLAC 1.2.1 (UTC 2007-09-17)
Language : Russian
Default : Yes
Forced : No

Audio # 2
ID : 3
Format : FLAC
Format/Info : Free Lossless Audio Codec
Codec ID : A_FLAC
Duration : 45 s 1 ms
Bit rate mode : Variable
Bit rate : 3575 Kbps
Channel(s) : 6 channels
Sampling rate : 48.0 KHz
Frame rate : 11.733 FPS (4091 spf)
Bit depth : 24 bits
Stream size : 19.2 MiB (5%)
Title : FLAC
Writing Iibrary : IibFLAC 1.2.1 (UTC 2007-09-17)
Language : English
Default : No
Forced : No

Audio # 3
ID : 4
Format : FLAC
Format/Info : Free Lossless Audio Codec
Codec ID : A_FLAC
Duration : 45 s 1 ms
Bit rate mode : Variable
Bit rate : 3641 Kbps
Channel(s) : 6 channels
Sampling rate : 48.0 KHz
Frame rate : 11.733 FPS (4091 spf)
Bit depth : 24 bits
Stream size : 19.5 MiB (5%)
Title : FLAC
Writing Iibrary : IibFLAC 1.2.1 (UTC 2007-09-17)
Language : French
Default : No
Forced : No
Bonus Video(1998 x 1080/10 bits/MKV/267MB)

网友评论16

  1. 18楼
    haoguannan:

    感谢分享

    2021-10-07 下午10:51
  2. 17楼
    haoguannan:

    感谢分享 十分感谢

    2021-10-07 下午10:46
  3. 16楼
    15036351490:

    谢谢分享

    2021-08-30 下午2:44

发表评论

您必须 [ 登录 ] 才能发表留言!

郑重声明:本站所有内容采集均来自互联网,我们不提供任何上传、存储、播放,若侵犯您的权益请邮件联系tianying4k@163.com,我们将尽快处理。